extratorrent2.cc - A Fan Made Alternative Login   |   Register
Important Information
Registrations are open now
-------------------------------------

Please click here to register with Extratorrent2 to recieve latest updates, add bookmarks and to post comments.

Friends
Friends

1) ProxyFix

Extratorrent2 > Categories > Movies > 18+ Patient Zero 2018 Movies 720p BluRay x264 AAC ESubs with Sample ☻rDX☻ torrent


Browse Movies torrents

18+ Patient Zero 2018 Movies 720p BluRay x264 AAC ESubs with Sample ☻rDX☻ torrent


Download torrent: Download 18+ Patient Zero 2018 Movies 720p BluRay x264 AAC ESubs with Sample ☻rDX☻ torrent Magnet link Bookmark Torrent: 18+ Patient Zero 2018 Movies 720p BluRay x264 AAC ESubs with Sample ☻rDX☻   18+ Patient Zero 2018 Movies 720p BluRay x264 AAC ESubs with Sample ☻rDX☻ torrent
Info hash: D6FAED3120E374CFCBF1243F3CD7045D8FAED0DB
Category: Categories > Movies
Trackers:
View all torrent trackers >
Health:
 seeds: 5 ,  leechers: 1 |  Update >
Torrent language: English English
Total Size: 780.6 MB
Files List:
2    View torrent files >
Uploader:
nehalpuja
Torrent added: November 4, 2018, 4:31 pm
IMDB: http://www.imdb.com/title/tt3458254
Users rating: ---, not rated. please login to rate.

Download 18+ Patient Zero 2018 Movies 720p BluRay x264 AAC ESubs with Sample ☻rDX☻ torrent



Torrent Description

18+ Patient Zero 2018 Movies 720p BluRay x264 AAC ESubs with Sample ☻rDX☻
===============================================================================================

SCREEN SHOTS:



or

https://iphonehosting.eu/2018/10/call/1.html

File size : 769 MiB
Duration : 1 h 26 min
Overall bit rate : 1 239 kb/s
Movie name : 18+ Patient Zero 2018 Movies 720p BluRay x264 AAC ESubs ☻rDX☻

Video
ID : 2
Format : AVC
Format/Info : Advanced Video Codec
Format profile :
Format settings, CABAC : Yes
Format settings, ReFrames : 4 frames
Codec ID : V_MPEG4/ISO/AVC
Duration : 1 h 26 min
Bit rate : 1 200 kb/s
Width : 1 280 pixels
Height : 532 pixels
Display aspect ratio : 2.40:1
Frame rate mode : Constant
Frame rate : 23.976 (23976/1000) FPS
Original frame rate : 23.976 (24000/1001) FPS
Color space : YUV
Chroma subsampling : 4:2:0
Bit depth : 8 bits
Scan type : Progressive
Bits/(Pixel*Frame) : 0.073
Stream size : 714 MiB (93%)
Title : ☻rDX☻
Writing library : x264

Audio
ID : 1
Format : MPEG Audio
Format version : Version 1
Format profile : Layer 3
Mode : Joint stereo
Mode extension : MS Stereo
Codec ID : A_MPEG/L3
Codec ID/Hint : MP3
Duration : 1 h 26 min
Bit rate mode : Constant
Bit rate : 64.0 kb/s
Channel(s) : 2 channels
Sampling rate : 44.1 kHz
Compression mode : Lossy
Stream size : 39.7 MiB (5%)
Title : ☻rDX☻
Default : Yes
Forced : No

Text
ID : 3
Format : UTF-8
Codec ID : S_TEXT/UTF8
Codec ID/Info : UTF-8 Plain Text
Title : ☻rDX☻
Language : English
Default : Yes
Forced : No

https://www.imdb.com/title/tt3458254


Download 18+ Patient Zero 2018 Movies 720p BluRay x264 AAC ESubs with Sample ☻rDX☻ torrent


Related Torrents

Added  Size  Health
Download Magnet link Browse Movies torrent 18+ Patient Zero 2018 Movies 720p BluRay x264 5.1 ESubs with Sample ☻rDX☻ in Movies - HD, by
nehalpuja
1m 981.4 MB 5 8



Comments   (please login to add your comment!)


Home - Browse Torrents

Made with love by an Extratorrent Fan!